<?xml version="1.0" standalone="no"?>
<!DOCTYPE svg PUBLIC "-//W3C//DTD SVG 1.1//EN" "http://www.w3.org/Graphics/SVG/1.1/DTD/svg11.dtd" >
<!--
2013-9-30: Created.
-->
<svg>
<metadata>
Created by iconfont
</metadata>
<defs>

<font id="iconfont" horiz-adv-x="1024" >
  <font-face
    font-family="iconfont"
    font-weight="500"
    font-stretch="normal"
    units-per-em="1024"
    ascent="896"
    descent="-128"
  />
    <missing-glyph />
    
    <glyph glyph-name="outdent" unicode="&#60422;" d="M408 454h480c4.4 0 8 3.6 8 8v56c0 4.4-3.6 8-8 8H408c-4.4 0-8-3.6-8-8v-56c0-4.4 3.6-8 8-8z m-8-204c0-4.4 3.6-8 8-8h480c4.4 0 8 3.6 8 8v56c0 4.4-3.6 8-8 8H408c-4.4 0-8-3.6-8-8v-56z m504 486H120c-4.4 0-8-3.6-8-8v-56c0-4.4 3.6-8 8-8h784c4.4 0 8 3.6 8 8v56c0 4.4-3.6 8-8 8z m0-632H120c-4.4 0-8-3.6-8-8v-56c0-4.4 3.6-8 8-8h784c4.4 0 8 3.6 8 8v56c0 4.4-3.6 8-8 8zM115.4 377.1L271.7 254c5.8-4.6 14.4-0.5 14.4 6.9V507.1c0 7.4-8.5 11.5-14.4 6.9L115.4 390.9c-4.5-3.5-4.5-10.3 0-13.8z"  horiz-adv-x="1024" />

    
    <glyph glyph-name="outdent-copy" unicode="&#60423;" d="M616 314l-480 0c-4.4 0-8-3.6-8-8l0-55.99999999c0-4.4 3.6-8 8-8.00000001L616 242c4.4 0 8 3.6 8 8l0 56c0 4.4-3.6 8-8 8z m8 204c0 4.4-3.6 8-8 8l-480 0c-4.4 0-8-3.6-8-8.00000001l0-55.99999999c0-4.4 3.6-8 8-8L616 454c4.4 0 8 3.6 8 8l0 56z m-504-486L904 32c4.4 0 8 3.6 8 8l0 56c0 4.4-3.6 8-8 8l-784 0c-4.4 0-8-3.6-8-8l0-56c0-4.4 3.6-8 8-8z m0 632L904 664c4.4 0 8 3.6 8 8l0 56c0 4.4-3.6 8-8 8l-784 0c-4.4 0-8-3.6-8-8l0-56c0-4.4 3.6-8 8-8zM908.6 390.9L752.29999999 514c-5.8 4.6-14.4 0.5-14.39999999-6.90000001L737.9 260.90000001c0-7.4 8.5-11.49999999 14.39999999-6.90000001L908.6 377.1c4.5 3.5 4.5 10.3 0 13.8z"  horiz-adv-x="1024" />

    
    <glyph glyph-name="yinzifenbu" unicode="&#58920;" d="M509.605612 452.140296c34.41933 0 64.349182-29.830086 64.349181-64.349181 0-34.41933-29.830086-64.349182-64.349181-64.349182-34.41933 0-64.349182 29.830086-64.349182 64.349182s27.535464 64.349182 64.349182 64.349181z m-4.589244-578.843336c135.482463 0 264.180826 52.876072 360.654715 149.349961 98.768511 98.768511 151.644583 225.072486 151.644583 362.949338 0 135.482463-52.876072 264.180826-149.349961 360.654715C771.39205 842.625097 642.793453 895.501169 507.31099 895.501169 263.781761 897.795791 57.066251 725.49961 6.484801 491.248636h80.411536c41.303196 170.001559 183.769291 300.894778 356.065471 326.13562l9.178488 2.294622v-29.830086h112.536243V815.089634l9.178488-2.294622c183.769291-29.830086 328.530008-174.590803 358.360094-358.360094l2.294622-9.178488h-29.830086v-112.536243h29.830086l-2.294622-9.178488c-13.767732-91.884645-55.170694-174.590803-119.420109-241.234606C748.44583 18.057677 665.739673-25.639906 573.855027-39.407638l-9.178488-2.294622v34.419329H452.140296v-36.713951l-9.178488 2.294622c-119.420109 20.651598-227.367108 87.295401-294.010912 183.76929H57.066251c91.884645-165.412315 264.180826-268.77007 447.950117-268.77007zM486.559626 762.313328h45.992206v-89.590023h-45.992206V762.313328z m0-96.473889h45.992206v-89.590024h-45.992206v89.590024z m0-96.47389h45.992206v-89.590023h-45.992206v89.590023z m303.289166-149.349961H877.144193v-45.892439h-87.295401v45.892439z m-96.473889 0h89.590023v-45.892439h-89.590023v45.892439z m-96.47389-2.294622h89.590024v-45.892439h-89.590024v45.892439zM486.559626 312.068589h45.992206v-89.590023h-45.992206v89.590023z m0-96.473889h45.992206v-89.590023h-45.992206V215.5947z m0-98.768511h45.992206v-89.590024h-45.992206V116.826189z m0 0M283.036633 303.289166m-17.858145 0a17.858145 17.858145 0 1 1 35.71629 0 17.858145 17.858145 0 1 1-35.71629 0ZM355.566641 218.088854m-23.844116 0a23.844115 23.844115 0 1 1 47.688231 0 23.844115 23.844115 0 1 1-47.688231 0ZM371.928293 93.181606m-17.45908 0a17.45908 17.45908 0 1 1 34.91816 0 17.45908 17.45908 0 1 1-34.91816 0ZM253.805144 156.333593m-23.44505 0a23.445051 23.445051 0 1 1 46.890101 0 23.445051 23.445051 0 1 1-46.890101 0ZM645.786438 661.250195m-23.844115 0a23.844115 23.844115 0 1 1 47.68823 0 23.844115 23.844115 0 1 1-47.68823 0ZM671.925175 541.73032m-39.507404 0a39.507405 39.507405 0 1 1 79.014809 0 39.507405 39.507405 0 1 1-79.014809 0ZM775.981294 618.35074m-18.057677 0a18.057677 18.057677 0 1 1 36.115354 0 18.057677 18.057677 0 1 1-36.115354 0ZM793.839439 509.805144m-23.445051 0a23.445051 23.445051 0 1 1 46.890101 0 23.445051 23.445051 0 1 1-46.890101 0Z"  horiz-adv-x="1024" />

    
    <glyph glyph-name="tuichu" unicode="&#58937;" d="M506.368 558.592l-53.248-53.248 84.48-84.48h-451.072v-74.24h451.072l-84.48-84.48 53.248-53.248 147.968 147.968 25.6 26.624-25.6 26.624-147.968 148.48z m-235.008 306.688v-369.664h74.24v295.936h518.144v-814.08h-518.144V272.89599999999996H271.36v-369.664h665.6V864.768h-665.6z"  horiz-adv-x="1024" />

    
    <glyph glyph-name="baobiao" unicode="&#59143;" d="M786.1-34H237.9c-45.2 0-81.9 34.8-81.9 77.7V724.3c0 42.8 36.8 77.7 81.9 77.7h448L868 631.7v-588c0-42.9-36.7-77.7-81.9-77.7zM237.9 752c-17.3 0-31.9-12.7-31.9-27.7v-680.6c0-15 14.6-27.7 31.9-27.7h548.2c17.3 0 31.9 12.7 31.9 27.7V610L666.2 752H237.9zM289.2 186.2H735v-50H289.2zM289.2 358.1H735v-50H289.2zM289.2 530.1H531v-50H289.2zM856 606.8c0-6-4.4-11-9.7-11H690.6c-26.8 0-48.6 24.7-48.6 55V780c0 6 4.4 11 9.7 11"  horiz-adv-x="1024" />

    
    <glyph glyph-name="jiance" unicode="&#58952;" d="M511.4 779.5L878 667.2v-340.9c-4-6.9-18.3-27.5-66-73.6-34.8-33.5-81-74.7-137.5-122.2C611 77 548.7 27.3 513-0.8c-35.7 28.1-98 77.8-161.5 131.2C295 178 248.8 219.2 214 252.8c-47.7 46.1-62 66.7-66 73.6v341l363.4 112.1m-0.1 52.3L98 704.2v-384.3c0-63.9 415-384.2 415-384.2S928 256 928 320V704.3L511.3 831.8zM634.6 158.2L508 568.5 392 303.8l-146.6 152H128v50h138.7l109.5-113.6 140 319.4L645.7 292l107 213.8h143.5v-50H783.6z"  horiz-adv-x="1024" />

    
    <glyph glyph-name="qushitu" unicode="&#58940;" d="M937.2 62.8H141.9c-42 0-76.2 34.2-76.2 76.2V682.4c0 12.8 10.4 23.2 23.2 23.2s23.2-10.4 23.2-23.2V139c0-16.4 13.4-29.8 29.8-29.8h795.3c12.8 0 23.2-10.4 23.2-23.2 0-12.8-10.4-23.2-23.2-23.2zM178.3 201.9c-3.8 0-7.6 0.9-11.2 2.9-11.2 6.2-15.3 20.3-9.1 31.5l115.1 208.6c5 9.1 13.6 15.6 23.6 18 9.9 2.3 20.4 0.3 28.8-5.5l56.5-39 83.2 193.9c8.3 19.4 27.2 31.2 47.8 30.3 20.8-1 38.4-14.6 44.9-34.8l60.9-189.2L734 490.2c8.7 5.4 19.3 6.9 29.1 4 9.9-2.9 18.2-9.9 22.7-19.3l82.7-167.4c5.7-11.5 1-25.4-10.5-31.1-11.5-5.7-25.4-1-31.1 10.5l-78 157.8-116.7-72.5c-9.5-5.9-21-7.1-31.5-3.2-10.6 3.9-18.7 12.4-22.2 23.3l-64.8 201.2c-0.4 1.2-1.1 2.6-3 2.7-1.8 0.1-2.5-1.1-3-2.3l-88-205c-4.4-10.2-12.9-17.8-23.4-20.8-10.4-3-21.6-1.2-30.5 5l-57.4 39.6-109.8-198.8c-4.2-7.6-12.1-12-20.3-12z m565.8 252.7s0-0.1 0.1-0.1l-0.1 0.1z"  horiz-adv-x="1024" />

    
    <glyph glyph-name="fengxiang" unicode="&#59267;" d="M973.824 617.813333l-136.533333 85.333334c-10.581333 6.485333-23.893333 6.826667-34.474667 1.024-10.922667-6.144-17.749333-17.749333-17.749333-30.037334V622.933333H318.122667L88.064 787.114667a33.792 33.792 0 0 1-40.96-1.024c-11.946667-9.216-16.042667-25.258667-10.581333-39.253334L99.669333 588.8l-63.146666-158.037333c-5.461333-13.994667-1.365333-30.037333 10.581333-39.594667 6.144-4.778667 13.653333-7.168 21.162667-7.168 6.826667 0 13.994667 2.048 19.797333 6.485333L318.122667 554.666667H477.866667v-307.2h-68.266667v-341.333334h68.266667v273.066667h68.266666v-273.066667h68.266667V247.466667h-68.266667v307.2h238.933334v-51.2c0-12.288 6.826667-23.893333 17.749333-29.696 5.12-2.730667 10.922667-4.437333 16.384-4.437334 6.144 0 12.629333 1.706667 18.090667 5.12l136.533333 85.333334c9.898667 6.144 16.042667 17.408 16.042667 29.013333s-6.144 22.869333-16.042667 29.013333z"  horiz-adv-x="1024" />

    
    <glyph glyph-name="tubiao_tianqi" unicode="&#58886;" d="M863.55019 121.946089h-22.860923a327.842567 327.842567 0 0 1-655.515793 0H162.312552a350.703489 350.703489 0 0 0 701.237638 0zM949.405656 121.946089h-22.860923a413.698032 413.698032 0 0 1-827.226724 0H76.457086a436.558955 436.558955 0 0 0 872.94857 0zM762.284769 121.946089h-22.860922a226.407806 226.407806 0 0 1-452.815612 0H263.916653a249.438068 249.438068 0 0 0 498.706797 0z"  horiz-adv-x="1024" />

    
    <glyph glyph-name="tubiao_fengli" unicode="&#58887;" d="M410.565239 484.50339a12.700513 12.700513 0 0 0-0.846701 25.401025C623.933851 523.451629 707.757235 752.907557 708.603936 755.27832a12.700513 12.700513 0 1 0 24.046304-8.467009c0-2.540103-90.08897-247.744667-321.746321-262.138581zM333.007442 278.077724a12.700513 12.700513 0 0 0 0 25.401026c298.208037 9.65239 452.307591 380.338019 453.831652 384.063502a12.700513 12.700513 0 0 0 16.934017 6.942947 12.531172 12.531172 0 0 0 6.942947-16.934017c-1.524062-3.894824-161.719861-389.482388-476.523235-399.981478zM185.004134 21.696709a12.700513 12.700513 0 1 0 0 25.401025c437.236316 0 633.840251 508.020506 635.702994 513.270052a12.700513 12.700513 0 0 0 16.934016 7.450967 12.869853 12.869853 0 0 0 7.450968-16.934017c-2.540103-4.741525-205.578965-529.188027-660.087978-529.188027z"  horiz-adv-x="1024" />

    
    <glyph glyph-name="tubiao_shidu" unicode="&#58888;" d="M513.693402 20.680668a240.63238 240.63238 0 0 0-240.46304 240.293699c0 129.714569 160.53448 379.152638 213.199273 461.11328l10.16041 15.917976a20.15148 20.15148 0 0 0 16.934017 9.313709 19.8128 19.8128 0 0 0 16.934016-9.48305l12.700513-19.643459c90.42765-139.028278 210.65917-338.680337 210.65917-457.218456a240.63238 240.63238 0 0 0-240.124359-240.293699z m0 689.722507l-2.709443-4.064164c-138.350918-215.231354-208.457748-365.097404-208.457748-445.364644a211.16719 211.16719 0 0 1 422.334381 0c0 124.634364-155.115595 363.065322-205.917645 441.30048z m7.450967 12.023152zM357.392426 246.411113a14.563255 14.563255 0 0 0-14.393914 13.377873c-10.837771 123.618323 109.055069 267.896147 114.135273 273.992393a14.563255 14.563255 0 0 0 22.352903-18.796759c-1.185381-1.354721-117.183397-141.060361-107.531007-252.655531a14.563255 14.563255 0 0 0-13.208534-15.917976zM403.452952 127.195634a14.393914 14.393914 0 0 0-11.007111 5.080205 190.67703 190.67703 0 0 0-37.254837 58.422358 14.563255 14.563255 0 1 0 27.263767 9.31371 169.340169 169.340169 0 0 1 32.005292-49.108649 14.901935 14.901935 0 0 0-1.354722-20.659501 15.071275 15.071275 0 0 0-9.652389-3.048123z"  horiz-adv-x="1024" />

    
    <glyph glyph-name="tubiao_wendu" unicode="&#58889;" d="M511.66132-26.565239a142.415082 142.415082 0 0 0-109.73243 232.842732 63.163883 63.163883 0 0 1 14.563255 40.64164V673.487018a95.677195 95.677195 0 0 0 108.377708 94.661155 97.539937 97.539937 0 0 0 82.638002-97.709278v-423.350421a65.026625 65.026625 0 0 1 15.071275-41.319002 142.415082 142.415082 0 0 0-110.91781-232.165371z m0 773.884571a72.138912 72.138912 0 0 1-48.261948-18.288738 74.001654 74.001654 0 0 1-25.401026-55.543576v-426.567885a86.702166 86.702166 0 0 0-19.474119-54.527534 121.416901 121.416901 0 0 1-24.554325-103.297503 119.892839 119.892839 0 0 1 94.830495-91.951711 121.755581 121.755581 0 0 1 100.24938 25.739705 120.73954 120.73954 0 0 1 16.934017 169.340169 87.379527 87.379527 0 0 0-20.320821 54.696874v423.350422a75.695055 75.695055 0 0 1-63.841243 76.203076 67.736067 67.736067 0 0 1-9.99107 0.846701zM512 104.504052m-62.655862 0a62.655862 62.655862 0 1 1 125.311724 0 62.655862 62.655862 0 1 1-125.311724 0ZM521.82173 477.221763a9.99107 9.99107 0 0 1-19.8128 0v-403.198942h20.659501V477.221763z"  horiz-adv-x="1024" />

    
    <glyph glyph-name="shouye" unicode="&#58882;" d="M559.584587 131.259798v150.20473h-94.491814v-150.54341H323.524392A24.384984 24.384984 0 0 0 297.784687 156.660824V342.088308a14.901935 14.901935 0 0 0 4.910865 9.65239q60.793121 53.511493 121.4169 106.514966l80.944601 70.78419 6.942947 5.926906 48.261948-41.996361q78.912519-69.429469 158.333058-138.520258a20.998181 20.998181 0 0 0 7.958988-17.272698v-175.944435a28.618489 28.618489 0 0 0-11.345792-27.263767 22.352902 22.352902 0 0 0-11.007111-4.064164h-142.076401a11.515131 11.515131 0 0 0-2.540103 0z m70.953531 416.068795v70.44551c0 14.732595 3.386803 18.119398 16.934017 18.119398h64.010584c11.007111 0 14.732595-4.064164 14.732594-16.934017v-146.987266a19.98214 19.98214 0 0 1 7.620308-16.934017c23.368943-19.98214 46.229866-40.64164 69.260129-60.962461 11.345791-9.99107 11.684472-14.901935 2.201422-26.755747l-16.934017-21.844881c-7.112287-8.975029-13.039193-9.483049-21.506201-1.862742L520.975029 561.553167l-8.975029 7.789648c-18.458078-16.934017-36.746817-32.343972-54.866215-48.600629L257.989747 344.28973c-9.144369-7.958988-14.732595-7.620308-22.183562 1.862742l-18.627419 23.538284a13.885894 13.885894 0 0 0 1.693402 22.860923l111.425831 98.725318 148.341988 131.407971a44.875145 44.875145 0 0 0 66.889366 0l79.75922-70.953531 5.249545-4.233504z m0 0"  horiz-adv-x="1024" />

    
    <glyph glyph-name="ditu1" unicode="&#58885;" d="M768.719696 339.886886L861.687448 62.84637a18.627419 18.627419 0 0 0-18.627418-18.627418H180.93997A18.627419 18.627419 0 0 0 162.312552 62.84637l92.967752 277.040516a18.627419 18.627419 0 0 0 18.627419 18.627419h98.217298a18.627419 18.627419 0 0 0 14.732594-7.281628l116.844717-153.760873a10.32975 10.32975 0 0 1 16.934017 0L636.465024 351.232677a18.627419 18.627419 0 0 0 14.732595 7.281628h98.725318a18.627419 18.627419 0 0 0 18.796759-18.627419zM512 723.781048a174.251034 174.251034 0 0 1-174.081693-174.251033c0-104.144204 133.101373-251.639491 166.630726-287.031586a9.99107 9.99107 0 0 1 14.901934 0c33.868034 35.730776 166.630726 184.919464 166.630726 287.031586a173.912353 173.912353 0 0 1-174.081693 174.251033z m13.885894-243.849842a69.93749 69.93749 0 1 0 55.374235 54.188854 70.10683 70.10683 0 0 0-55.374235-54.188854z"  horiz-adv-x="1024" />

    
    <glyph glyph-name="paiming1" unicode="&#58881;" d="M144.023813 599.146684m16.934017 0l165.953366 0q16.934017 0 16.934017-16.934017l0-553.403671q0-16.934017-16.934017-16.934017l-165.953366 0q-16.934017 0-16.934017 16.934017l0 553.403671q0 16.934017 16.934017 16.934017ZM412.0893 438.612204m16.934017 0l165.953366 0q16.934017 0 16.934017-16.934016l0-393.038532q0-16.934017-16.934017-16.934017l-165.953366 0q-16.934017 0-16.934017 16.934017l0 393.038532q0 16.934017 16.934017 16.934016ZM680.154787 736.481561m16.934017 0l165.953366 0q16.934017 0 16.934017-16.934017l0-690.907888q0-16.934017-16.934017-16.934017l-165.953366 0q-16.934017 0-16.934017 16.934017l0 690.907888q0 16.934017 16.934017 16.934017Z"  horiz-adv-x="1024" />

    
    <glyph glyph-name="renwu1" unicode="&#58883;" d="M771.937159 679.583264h-127.174467v-29.803869a18.458078 18.458078 0 0 0-18.458078-18.458079H397.695386a18.627419 18.627419 0 0 0-18.288738 18.458079v29.803869h-126.327766a24.723665 24.723665 0 0 1-24.554324-24.554324v-586.425004a24.554324 24.554324 0 0 1 24.554324-24.554325H771.937159a24.384984 24.384984 0 0 1 24.554324 24.554325V655.02894A24.554324 24.554324 0 0 1 771.937159 679.583264zM319.629568 173.764181a33.868034 33.868034 0 1 0 33.868034 33.868033 33.868034 33.868034 0 0 0-33.868034-33.868033z m0 132.254671a33.868034 33.868034 0 1 0 33.868034 33.868034 33.868034 33.868034 0 0 0-33.868034-33.868034z m2.878783 132.762693a33.868034 33.868034 0 1 0 33.868034 33.868033 33.868034 33.868034 0 0 0-33.868034-33.868033zM738.069125 198.149165a12.192492 12.192492 0 0 0-12.361832-12.361832H431.22474a12.361832 12.361832 0 0 0-12.361833 12.361832v19.474119a12.361832 12.361832 0 0 0 12.361833 12.192492h294.821233a12.192492 12.192492 0 0 0 12.361833-12.192492z m0 132.254672a12.192492 12.192492 0 0 0-12.361832-12.361833H431.22474a12.361832 12.361832 0 0 0-12.361833 12.361833v19.304779a12.361832 12.361832 0 0 0 12.361833 12.361832h294.821233a12.192492 12.192492 0 0 0 12.361833-12.361832z m7.958988 130.391929a12.192492 12.192492 0 0 0-12.192492-12.192492H439.353068a12.192492 12.192492 0 0 0-12.361833 12.192492v19.47412a12.192492 12.192492 0 0 0 12.361833 12.192492h294.821233a12.192492 12.192492 0 0 0 12.192492-12.192492zM396.848685 723.950389m8.467009 0l216.586075 0q8.467008 0 8.467009-8.467009l0-61.978502q0-8.467008-8.467009-8.467008l-216.586075 0q-8.467008 0-8.467009 8.467008l0 61.978502q0 8.467008 8.467009 8.467009Z"  horiz-adv-x="1024" />

    
    <glyph glyph-name="wode1" unicode="&#58884;" d="M312.517281 544.44981A198.974698 198.974698 0 1 1 511.491979 743.593848a198.974698 198.974698 0 0 1-198.974698-199.144038z m0 0M804.619811 24.575492a18.796759 18.796759 0 0 1 18.966099 17.950058 309.723169 309.723169 0 0 1-308.707127 339.696378 315.819415 315.819415 0 0 1-314.972714-339.696378 18.796759 18.796759 0 0 1 16.934017-16.934017z m0 0"  horiz-adv-x="1024" />

    
    <glyph glyph-name="ai-home" unicode="&#58893;" d="M592.795-46.076v255.69h-160.738v-256.373c-5.023-0.259-9.031-0.648-13.039-0.648-75.895 0-151.828-0.041-227.728 0-26.080 0-43.617 16.728-43.733 44.431-0.527 105.2-0.366 210.487 0.117 315.687 0 5.547 4.214 12.642 8.466 16.428 68.686 60.686 137.734 120.984 206.665 181.33 45.884 40.169 91.729 80.341 137.612 120.468 3.565 3.098 7.213 6.106 11.704 9.939 27.378-23.917 54.633-47.699 81.849-71.526 89.783-78.581 179.449-157.332 269.476-235.612 9.679-8.384 13.81-16.899 13.728-30.446-0.566-99.872-0.406-199.778-0.201-299.603 0.038-18.152-4.214-33.937-19.321-43.959-5.468-3.649-12.392-6.794-18.668-6.836-80.552-0.43-161.103-0.211-241.61-0.17-1.175-0.002-2.396 0.558-4.579 1.199v0zM713.764 661.814c0 42.193-0.040 81.158 0 120.085 0.038 24.858 5.627 30.793 28.995 30.835 36.287 0 72.574 0.041 108.861-0.042 18.711-0.047 25.187-7.053 25.231-28.086 0.084-83.307 0.282-166.664-0.245-249.971-0.082-12.86 3.322-21.115 12.834-29.287 39.775-33.979 78.772-68.901 117.975-103.61 19.233-17.034 19.721-25.33 3.521-45.591-9.797-12.3-19.394-24.816-29.279-37.075-12.148-15.179-22.193-16.126-36.731-3.221-139.192 123.352-278.385 246.788-417.621 370.181-4.819 4.257-9.758 8.432-15.392 13.337-31.303-27.703-62.366-55.1-93.348-82.58-112.988-100.131-225.979-200.296-338.97-300.42-15.308-13.59-24.821-12.777-37.7 3.225-10.657 13.29-21.262 26.667-31.751 40.080-12.232 15.657-11.743 25.766 3.037 38.967 63.054 56.042 126.275 111.871 189.451 167.782 84.194 74.537 168.471 148.983 252.627 223.648 38.188 33.85 75.367 33.85 113.639-0.258 45.235-40.298 90.597-80.43 135.91-120.598 2.151-1.897 4.418-3.657 8.954-7.402v0zM713.764 661.814z"  horiz-adv-x="1024" />

    
    <glyph glyph-name="wode" unicode="&#58936;" d="M511.975619 866.401524c-269.312 0-487.619048-218.258286-487.619048-487.594667 0-269.360762 218.307048-487.643429 487.619048-487.643429 269.336381 0 487.66781 218.282667 487.66781 487.643429C999.643429 648.118857 781.312 866.401524 511.975619 866.401524L511.975619 866.401524zM511.975619 825.782857 511.975619 825.782857c246.467048 0 447.000381-200.533333 447.000381-446.976 0-108.422095-38.863238-207.993905-103.326476-285.45219-44.568381 18.627048-149.77219 55.149714-214.869333 74.337524-5.558857 1.755429-6.436571 2.048-6.436571 25.185524 0 19.041524 7.826286 38.278095 15.506286 54.51581 8.289524 17.724952 18.115048 47.420952 21.674667 74.093714 9.874286 11.483429 23.332571 34.084571 31.98781 77.190095 7.606857 38.058667 4.071619 51.858286-0.975238 64.828952-0.512 1.389714-1.048381 2.730667-1.487238 4.047238-1.901714 8.923429 0.707048 55.222857 7.241143 91.111619 4.486095 24.673524-1.145905 77.06819-35.08419 120.393143-21.430857 27.428571-62.439619 61.049905-137.313524 65.731048l-41.081905-0.048762c-73.606095-4.632381-114.614857-38.253714-136.045714-65.682286-33.962667-43.300571-39.570286-95.719619-35.08419-120.368762 6.582857-35.937524 9.118476-82.212571 7.265524-90.940952-0.414476-1.511619-0.926476-2.852571-1.511619-4.242286-4.998095-12.970667-8.582095-26.794667-0.950857-64.828952 8.630857-43.081143 22.040381-65.706667 32.01219-77.190095 3.486476-26.672762 13.336381-56.393143 21.625905-74.093714 6.095238-12.897524 8.94781-30.524952 8.94781-55.417905 0-23.04-0.853333-23.381333-6.070857-24.990476-67.364571-19.846095-174.518857-58.61181-214.503619-76.141714-65.706667 77.848381-105.472 178.322286-105.472 287.98781C64.975238 625.249524 265.508571 825.782857 511.975619 825.782857L511.975619 825.782857zM199.92381 59.196952 199.92381 59.196952c45.738667 18.67581 136.97219 51.2 196.87619 68.900571 34.864762 10.99581 34.864762 40.326095 34.864762 63.853714 0 19.577905-1.365333 48.420571-12.775619 72.752762-7.850667 16.725333-16.822857 45.275429-18.797714 67.705905-0.438857 5.241905-2.852571 10.044952-6.851048 13.482667-5.753905 5.095619-17.481143 23.527619-24.917333 60.732952-5.924571 29.476571-3.413333 35.937524-0.999619 42.154667 1.048381 2.657524 2.048 5.266286 2.82819 8.240762 4.85181 17.822476-0.536381 76.434286-6.485333 108.934095-2.56 14.116571 0.658286 54.223238 27.111619 88.088381 23.673905 30.281143 59.538286 47.152762 105.301333 50.078476l38.521905 0.048762c46.982095-2.974476 82.846476-19.821714 106.569143-50.127238 26.428952-33.889524 29.671619-73.97181 27.062857-88.088381-5.87581-32.49981-11.337143-91.087238-6.460952-108.934095 0.853333-2.974476 1.77981-5.583238 2.80381-8.240762 2.438095-6.241524 4.924952-12.702476-0.950857-42.154667-7.460571-37.180952-19.21219-55.637333-24.941714-60.732952-3.949714-3.437714-6.38781-8.240762-6.851048-13.482667-1.950476-22.430476-10.898286-51.004952-18.797714-67.705905-8.996571-19.139048-19.358476-44.617143-19.358476-71.850667 0-23.625143 0-52.955429 35.181714-64.048762 57.368381-16.896 149.016381-48.420571 197.436952-67.486476-80.822857-80.042667-191.902476-129.560381-314.343619-129.560381C390.680381-68.242286 280.551619-19.577905 199.92381 59.196952z"  horiz-adv-x="1024" />

    
    <glyph glyph-name="renwu" unicode="&#59184;" d="M192 832h641c17.673 0 32-14.327 32-32v-832c0-17.673-14.327-32-32-32H192c-17.673 0-32 14.327-32 32V800c0 17.673 14.327 32 32 32z m40-64a8 8 0 0 1-8-8v-752a8 8 0 0 1 8-8h561a8 8 0 0 1 8 8V760a8 8 0 0 1-8 8H232z m112-176c-30.928 0-56 25.072-56 56s25.072 56 56 56 56-25.072 56-56-25.072-56-56-56z m0-528c-30.928 0-56 25.072-56 56s25.072 56 56 56 56-25.072 56-56-25.072-56-56-56z m0 264c-30.928 0-56 25.072-56 56s25.072 56 56 56 56-25.072 56-56-25.072-56-56-56z m126 352h235c17.673 0 32-14.327 32-32 0-17.673-14.327-32-32-32H470c-17.673 0-32 14.327-32 32 0 17.673 14.327 32 32 32z m0-264h235c17.673 0 32-14.327 32-32 0-17.673-14.327-32-32-32H470c-17.673 0-32 14.327-32 32 0 17.673 14.327 32 32 32z m0-264h235c17.673 0 32-14.327 32-32 0-17.673-14.327-32-32-32H470c-17.673 0-32 14.327-32 32 0 17.673 14.327 32 32 32z"  horiz-adv-x="1024" />

    
    <glyph glyph-name="paiming" unicode="&#58933;" d="M704.2 156c-19.3 0-35 15.7-35 35V448.1c0 19.3 15.7 35 35 35h138.4c19.3 0 35-15.7 35-35V191c0-19.3-15.7-35-35-35H704.2z m35 70h68.4V413.1h-68.4V226zM181.2 156c-19.3 0-35 15.7-35 35V574.2c0 19.3 15.7 35 35 35h138.4c19.3 0 35-15.7 35-35V191c0-19.3-15.7-35-35-35H181.2z m35 70h68.4V539.2h-68.4V226zM442.7 156c-19.3 0-35 15.7-35 35V768.1c0 19.3 15.7 35 35 35H581c19.3 0 35-15.7 35-35V191c0-19.3-15.7-35-35-35H442.7z m35 70H546V733.1h-68.4V226zM110.4 30.4c-19.3 0-35 15.8-34.9 35.1 0 19.3 15.7 34.9 35 34.9l803.1-2c19.3 0 35-15.8 34.9-35.1 0-19.3-15.7-34.9-35-34.9l-803.1 2z"  horiz-adv-x="1024" />

    
    <glyph glyph-name="ditu" unicode="&#59496;" d="M870.4 332.8h-175.616a1767.424 1767.424 0 0 0-144.384-187.904l-38.4-42.496-38.4 42.496A1767.424 1767.424 0 0 0 329.216 332.8H153.6l-153.6-460.8h1024zM768 640A256 256 0 0 1 256 640c0-175.104 256-460.8 256-460.8s256 285.696 256 460.8zM409.6 640a102.4 102.4 0 1 0 102.4-102.4 102.4 102.4 0 0 0-102.4 102.4z"  horiz-adv-x="1024" />

    
    <glyph glyph-name="faxianzuobiao" unicode="&#59186;" d="M512-11.507108010000024A395.57974703 395.57974703 0 0 0 358.06296672 748.41462747a395.5988743 395.5988743 0 0 0 307.89145423-728.83177553 393.04108125 393.04108125 0 0 0-153.95442095-31.08995995z m0 760.57378959a365.1505362 365.1505362 0 0 1-142.10441672-701.46287361A365.17227136 365.17227136 0 0 1 654.09572249 720.38497644 362.7770575 362.7770575 0 0 1 512 749.06668158zM268.3750405 220.45911701l180.34089382 259.03083467 306.71775622 67.9353874-178.83682166-258.10057016z m198.52886826 231.90536625l-128.91552737-185.18348608 220.36834851 49.24315827 127.80268735 184.48796088zM512.9302645 383.99439259999997m-27.03852777 0a27.03852777 27.03852777 0 1 1 54.07705554 0 27.03852777 27.03852777 0 1 1-54.07705553 0Z"  horiz-adv-x="1024" />

    
    <glyph glyph-name="gongsi" unicode="&#58926;" d="M901.12 54.272h-51.712V521.728c0 72.704-41.472 103.936-67.584 109.056l-165.888 51.712V739.84c0 10.24-5.12 15.36-10.24 20.992-5.12 5.12-15.36 5.12-20.992 5.12L237.056 667.136s-62.464-15.36-62.464-98.816v-514.048H122.88c-15.36 0-26.112-10.24-26.112-26.112 0-15.36 10.24-26.112 26.112-26.112h778.24c15.36 0 26.112 10.24 26.112 26.112 0 15.872-10.24 26.112-26.112 26.112z m-337.408 0H226.304V568.32c0 36.352 20.992 46.592 26.112 46.592l311.296 88.064v-648.704z m233.984 0h-181.76V630.784l160.256-53.248 3.584-1.536s15.872-6.656 18.432-54.272v-467.456zM371.712 595.968H320v-51.712h51.712V595.968z m119.296 0H439.296v-51.712h51.712V595.968zM371.712 482.816H320v-51.712h51.712V482.816z m119.296 0H439.296v-51.712h51.712V482.816z m-119.296-113.152H320v-51.712h51.712v51.712z m119.296 0H439.296v-51.712h51.712v51.712z m-119.296-112.64H320V204.8h51.712v52.224z m119.296 0H439.296V204.8h51.712v52.224z m-119.296-113.152H320V92.16h51.712v51.712z m119.296 0H439.296V92.16h51.712v51.712z m192.512 300.032h51.712V495.616h-51.712v-51.712z m0-119.296h51.712v51.712h-51.712v-51.712z m0-113.664h51.712v51.712h-51.712v-51.712z m0-115.2h51.712v51.712h-51.712v-51.712z"  horiz-adv-x="1024" />

    


  </font>
</defs>
</svg>
